The Pawn [Magnetic Scrolls] [adamantalias] [PC Games].torrent

Format : AVC
Format/Info : Advanced Video Codec
Format settings, CABAC : Yes
Format settings, ReFrames : 5 frames
Codec ID : V_MPEG4/ISO/AVC
Duration : 20mn 39s
Bit rate : 2 573 Kbps
Width : 1 280 pixels
Height : 720 pixels
Display aspect ratio : 16:9
Frame rate mode : Constant
Frame rate : 23.976 (24000/1001) fps
Color space : YUV
Chroma subsampling : 4:2:0
Bit depth : 8 bits
Scan type : Progressive
Bits/(Pixel*Frame) : 0.116
Stream size : 380 MiB (85%)
Writing library : x264 core 148 r2638 7599210
Encoding settings : cabac=1 / ref=5 / deblock=1:0:0 / analyse=0x3:0x113 /
me=umh / subme=8 / psy=1 / psy_rd=1.00:0.00 / mixed_ref=1 / me_range=16
/ chroma_me=1 / trellis=1 / 8x8dct=1 / cqm=0 / deadzone=21,11 /
fast_pskip=1 / chroma_qp_offset=-2 / threads=12 / lookahead_threads=2 /
sliced_threads=0 / nr=0 / decimate=1 / interlaced=0 / bluray_compat=0 /
constrained_intra=0 / bframes=3 / b_pyramid=2 / b_adapt=2 / b_bias=0 /
direct=3 / weightb=1 / open_gop=0 / weightp=2 / keyint=250 /
keyint_min=23 / scenecut=40 / intra_refresh=0 / rc_lookahead=50 / rc=crf
/ mbtree=1 / crf=21.0 / qcomp=0.60 / qpmin=0 / qpmax=69 / qpstep=4 /
ip_ratio=1.40 / aq=1:1.00
Default : Yes
Forced : No

Audio
Format : AC-3
Format/Info : Audio Coding 3
Mode extension : CM (complete main)
Format settings, Endianness : Big
Codec ID : A_AC3
Duration : 20mn 39s
Bit rate mode : Constant
Bit rate : 384 Kbps
Channel(s) : 6 channels
Channel positions : Front: L C R, Side: L R, LFE
Sampling rate : 48.0 KHz
Frame rate : 31.250 fps (1536 spf)
Compression mode : Lossy
Stream size : 56.7 MiB (13%)
Default : Yes
Forced : No




Download Files Here (Click to download )
Download as Zip
Download as Torrent (Use bittorrent client)
Torrent Download

 ZIP Coming Soon

Direct Download (Mirror)

 

bg.arpb.info.com/azid/caring3
Tags:
The Pawn , The Pawn crack, The Pawn patch, The Pawn keygen, The Pawn serial keys, The Pawn free full download, The Pawn patched, The Pawn activated, The Pawn pro setup, The Pawn full download, The Pawn activated, The Pawn keys, The Pawn serials, The Pawn  registration keys, The Pawn full version setup, The Pawn full setup, The Pawn activator, The Pawn product keys, The Pawn preactivated, The Pawn activated, The Pawn cracked, The Pawn patched, The Pawn precracked, The Pawn pin, The Pawn codes, The Pawn full, The Pawn premium, The Pawn pro, The Pawn free download, The Pawn free, New, Latest, Latest Crack, New Patch, Working Serial Keys, serial key new, The Pawn licationname full version with crack, The Pawn full version with crack, The Pawn full version, The Pawn full version crack, The Pawn full version patch, The Pawn full version serial keys, The Pawn preactivated, activator, The Pawn activator, 2014, trick, best trick, tweak , latest crack of The Pawn , patch for The Pawn , crack for The Pawn , serial keys for The Pawn , cracks, new version crack for The Pawn , keygen for The Pawn , new keygen, The Pawn full version with crack and keygen, The Pawn with keygen, The Pawn with crack, The Pawn with serial keys, registered, registered The Pawn , The Pawn registered, new The Pawn registered, latest The Pawn registered,
reg keys for The Pawn , The Pawn reg keys, The Pawn registeration keys, full version free, full free, free full version of The Pawn , The Pawn full version free, The Pawn premium, pro, The Pawn professional, The Pawn apk, The Pawn cracked apk, The Pawn mod apk, The Pawn modded apk, The Pawn full version free download
0/5 (0 Reviews)


Leave a Reply